#TITLE:Insane;
#SUBTITLE:Expi3nze;
#ARTIST:BTOB;
#TITLETRANSLIT:;
#SUBTITLETRANSLIT:;
#ARTISTTRANSLIT:;
#CREDIT:;
#BANNER:bn.png;
#BACKGROUND:bg.png;
#LYRICSPATH:;
#CDTITLE:cdtitle.png;
#MUSIC:Insane1.mp3;
#OFFSET:-0.120;
#SAMPLESTART:100.000;
#SAMPLELENGTH:12.000;
#SELECTABLE:YES;
#BPMS:0.000=130.005,1.000=129.999,6.000=130.005,7.000=129.999,13.000=130.005,14.000=129.999,19.000=130.005,20.000=129.999,26.000=130.005,27.000=129.999,31.000=260.024,31.500=65.006,31.750=130.012,32.000=129.999,35.000=130.005,36.000=129.999,41.000=130.005,42.000=129.999,48.000=130.005,49.000=129.999,55.000=130.005,56.000=129.999,61.000=130.005,62.000=129.999,68.000=130.005,69.000=129.999,74.000=130.005,75.000=129.999,81.000=130.005,82.000=129.999,87.000=130.005,88.000=129.999,93.000=130.005,94.000=129.999,100.000=130.005,101.000=129.999,107.000=130.005,108.000=129.999,114.000=130.005,115.000=129.999,120.000=130.005,121.000=129.999,127.000=130.005,128.000=129.999,130.000=259.998,131.000=260.024,132.000=130.005,133.000=129.999,139.000=130.005,140.000=129.999,145.000=130.005,146.000=129.999,152.000=130.005,153.000=129.999,159.000=130.005,160.000=129.999,164.000=65.001,164.333=260.024,165.000=130.005,166.000=129.999,168.000=65.001,168.333=260.024,169.000=130.005,170.000=129.999,176.000=130.005,177.000=129.999,180.000=65.001,180.333=260.024,181.000=130.005,182.000=129.999,184.000=65.001,184.333=260.024,185.000=130.005,186.000=129.999,192.000=130.005,193.000=129.999,194.000=259.998,195.000=260.024,196.000=259.998,198.000=130.005,199.000=129.999,205.000=130.005,206.000=129.999,212.000=130.005,213.000=129.999,219.000=130.005,220.000=129.999,225.000=130.005,226.000=129.999,232.000=130.005,233.000=129.999,238.000=130.005,239.000=129.999,245.000=130.005,246.000=129.999,252.000=130.005,253.000=129.999,258.000=130.005,259.000=129.999,265.000=259.998,267.000=129.999,268.000=130.005,269.000=129.999,275.000=130.005,276.000=129.999,281.000=130.005,282.000=129.999,288.000=130.005,289.000=129.999,294.000=130.005,295.000=259.998,298.000=260.024,299.000=259.998,300.000=129.999,301.000=259.998,302.000=65.001,302.333=260.024,303.000=129.999,304.000=130.005,305.000=129.999,306.000=65.001,306.333=260.024,307.000=129.999,308.000=130.005,309.000=129.999,315.000=130.005,316.000=129.999,318.000=65.001,318.333=260.024,319.000=129.999,320.000=130.005,321.000=129.999,322.000=65.001,322.333=260.024,323.000=129.999,324.000=130.005,325.000=129.999,331.000=130.005,332.000=259.998,335.000=260.024,336.000=129.999,337.000=130.005,338.000=129.999,344.000=130.005,345.000=129.999,350.000=130.005,351.000=129.999;
#STOPS:;
#BGCHANGES:;
// cache tags:
#FIRSTBEAT:1.000;
#LASTBEAT:348.000;
#SONGFILENAME:Songs/Expi3nze 4th Collection/Insane (BTOB)/Insane1.sm;
#HASMUSIC:1;
#HASBANNER:1;
#MUSICLENGTH:158.511;
// end cache tags

//---------------dance-single - ----------------
#NOTES:
     dance-single:
     :
     Hard:
     17:
     0.884,1.000,1.000,0.732,0.233,618.000,218.000,116.000,0.000,164.000:
0000
0000
0010
0010
1000
0100
0020
0000
,
0000
0000
0100
0100
0001
0100
2130
0000
,
0000
0000
0000
0000
0000
0000
3010
0010
,
0100
0100
0020
0000
0000
0000
0000
0000
,
0030
0010
0010
1000
1000
0010
2010
0000
,
0000
0000
0210
0010
0001
0310
0200
3000
,
0000
0302
0000
2103
,
0010
0001
0010
0001
0010
0001
0010
0001
0010
0001
0010
0000
3111
0000
0000
0000
,
0011
1000
0100
0010
1001
0100
1000
0010
0101
0010
1000
0000
2111
0000
0000
0000
,
0110
0000
0100
0000
0010
0100
0010
0000
0210
0000
0000
0000
3312
0000
0010
0000
,
1010
0000
0010
0100
0010
0000
1000
0000
0100
0000
0100
0000
2103
0000
0010
0000
,
0110
0000
0100
0100
0001
0000
0100
0000
0101
0000
0000
0000
3011
0000
0011
0000
,
1001
0000
1010
0000
1020
0000
0200
0001
2331
0000
0020
0000
3231
0000
0000
0000
,
2010
0000
0010
0001
3020
0000
1000
0000
1031
0000
0000
0000
0320
0000
0100
0000
,
0101
0000
0201
0000
0001
0000
0300
0000
0100
0000
0200
0000
2031
0010
0301
0010
,
0100
0000
0010
0000
0010
0000
0100
0000
0101
0000
0001
0010
3101
0010
0100
0001
,
0110
0001
0110
0001
1100
0011
1100
0011
1100
0011
1100
0011
0100
0000
0010
0000
,
0010
1000
1001
1001
0011
1001
1100
1000
,
0011
1000
0001
1000
0001
1000
0011
1000
,
1010
1010
1000
0001
1000
0010
1000
0010
,
1000
0001
0010
0000
1100
0000
1100
0000
0011
0000
1001
0000
1100
0000
1000
0000
,
0011
1000
1010
1010
0011
1001
1100
1000
,
0011
1000
0001
1000
0001
1000
1010
1000
,
0011
0110
1100
1000
0001
1000
0010
0000
,
0000
0000
0011
0011
1100
0011
0011
0000
,
1010
0000
1010
0000
1000
0000
0011
0000
0011
0000
1000
0010
0100
0000
1000
0000
,
1010
0000
1010
0000
0010
0000
1000
0100
0010
1000
0100
0000
1110
0000
1000
0100
,
1001
0000
1011
0000
1000
0000
0010
0100
0001
0000
0010
0000
1100
0000
1001
0000
,
0101
0000
0101
0000
0100
0001
0010
0000
1001
0000
1001
0000
1000
0000
0011
0000
,
0011
0000
1000
0000
0001
0000
0100
0010
1000
0000
1010
0000
1010
0000
1000
0000
,
0011
0000
0011
0000
1000
0000
0010
0100
1001
0010
0100
0001
1100
0001
1000
0010
,
0101
0010
1000
0100
0011
0100
1000
0010
0101
0010
0100
1000
0011
0000
0000
0000
,
0000
0000
0010
0001
0100
0000
0010
0000
0010
0000
0000
0000
0000
0000
0000
0000
,
2111
0000
0000
0000
0210
0000
0010
0001
0010
0000
0010
0000
0320
0000
0000
0000
,
3230
0000
0010
0000
1010
0000
0010
1000
0010
0000
1000
0000
1010
0000
1000
0000
,
2302
0200
3320
0200
2330
0200
3320
1030
,
2003
0000
0210
0000
3311
0000
1000
1000
0100
0000
0010
0000
1010
0000
1010
0000
,
1010
0000
1000
0000
0012
0000
0100
1000
0010
0000
0010
0000
1020
0000
1000
0000
,
2030
0010
3113
0100
0020
0001
1201
1000
,
0032
0000
0010
0000
1310
0000
1000
0000
1200
0000
2300
0000
3020
0000
0200
0030
,
2313
0001
0100
0010
0101
0010
0001
0100
0011
0100
0010
0001
0100
0010
0001
0000
,
3111
0000
0111
1010
1010
0011
0110
1100
,
1000
0000
1110
0101
0101
0001
1100
1100
,
2100
0000
0001
0000
0101
0000
0100
0100
0001
0000
0010
0000
0101
0000
0101
0000
,
3001
0100
0111
0000
0001
1000
1010
1010
,
1010
0000
0111
0101
0101
1100
1001
0011
,
0001
0000
1110
1100
0001
0101
0101
0100
,
0102
0000
0000
0000
1110
0000
1000
0100
1000
0100
1020
0100
1000
0000
2130
0010
,
0103
0101
0101
0101
0010
0010
0010
0010
,
0010
0010
0010
0000
3010
0000
0010
0010
,
0000
0000
1000
0000
0010
1100
1100
0001
,
0000
0000
0010
0000
0010
1010
1010
1000
,
0000
0010
0000
0000
,
0020
0230
0302
0023
0230
0000
0000
0020
,
0000
0030
0020
0000
2300
0000
0030
0200
,
0000
0000
0302
0200
3323
0000
0000
0000
,
0000
0000
0000
0000
0000
0000
0030
0010
,
0010
1000
0100
0100
0200
0000
0000
0000
,
0010
0010
0001
0010
0320
0000
0000
0000
,
0100
0100
1000
0100
2230
0320
0230
0302
,
0023
0230
0302
0203
3320
0032
2003
3010
,
0010
1000
0100
0010
2000
0000
0000
0010
,
0010
0000
0100
0000
0001
0000
0100
0000
3020
0000
0000
0000
0030
0000
0100
1000
,
0100
0100
2000
3200
2300
0000
0000
0000
,
0000
0000
3020
0000
,
0000
0000
0000
0000
,
0030
0000
0000
2111
,
0210
0000
0010
0001
0010
0000
0010
0000
0320
0000
0000
0000
3230
0000
0010
0000
,
1010
0000
0010
1000
0010
0000
1000
0000
1010
0000
1000
0000
2302
0000
0200
0000
,
3320
0200
2330
0200
3320
1030
2003
0210
,
3311
0000
1000
1000
0100
0000
0010
0000
1010
0000
1010
0000
1010
0000
1000
0000
,
0012
0000
0100
1000
0010
0000
0010
0000
1020
0000
1000
0000
2030
0000
0010
0000
,
3113
0100
0020
0001
1201
1000
0032
0010
,
1310
0000
1000
0000
1200
0000
2300
0000
3020
0000
0200
0030
2313
0000
0000
0000
,
0111
0111
0111
0111
,
0100
0010
0101
0010
0001
0000
0000
0000
3111
0000
0000
0000
0111
0000
1010
0000
,
1010
0011
0110
1100
1000
0000
1110
0101
,
0101
0000
0001
0000
1100
0000
1100
0000
2100
0000
0001
0000
0101
0000
0100
0100
,
0001
0010
0101
0101
3001
0100
0111
0000
,
0001
1000
1010
1010
1010
0000
0111
0101
,
0101
1100
1001
0011
0001
0000
1110
1100
,
0001
0000
0101
0000
0101
0000
0100
0000
0102
0000
0000
0000
1110
0000
1000
0100
,
1000
0100
1020
0100
1000
0000
2130
0010
0103
0000
0101
0000
0101
0000
0101
0000
,
0010
0010
0010
0010
0010
0010
0010
0000
,
3020
0000
0000
0000
0100
0100
0001
0100
,
2130
0000
0000
0000
,
3020
0000
0000
0000
,
0030
0000
0000
0000
,
0000
0000
0000
0000
,
0000
0000
0000
0000
,
0000
0000
0000
0000
;
